+ panduanpokerdomino.com »  :::: Dubbed Zone (Dubbed English in Hindi) » English Movies Dubbed in Hindi » Small Size Dubbed Movies
|- Sleepy Hollow[1999] BRrip x264 Dual Audio[Eng-Hindi] ET


10% SBI and 10% Discount

Sleepy Hollow[1999] BRrip x264 Dual Audio[Eng-Hindi] ET

0 Members and 1 Guest are viewing this topic.

March 23, 2013, 12:40:32 PM
  • Admin (Inactive)
  • Legend Member
  • ****
  • Topic Author
  • Thank You: 1592
  • Reputation: 814
  • Activity:
    0.2%
  • Country: in
  • Posts: 3337
  • Topics: 1442
  • Join Date: Nov 2012
  • ShareSpark Member
  • Expertises:
  • Bollywood Movies
  • Dubbed Movies
  • Hollywood Movies
Sleepy Hollow[1999] BRrip x264 Dual Audio[Eng-Hindi] ET










Format : Matroska
Format version : Version 2
File size : 413 MiB
Duration : 1h 39mn
Overall bit rate : 579 Kbps
Width : 720 pixels
Height : 384 pixels
Frame rate : 23.976 fps

Audio #1
ID : 2
Format : AC-3
Duration : 1h 39mn
Bit rate : 64.0 Kbps
Channel(s) : 2 channels
Channel positions : Front: L R
Sampling rate : 48.0 KHz
Stream size : 45.7 MiB (11%)
Language : Hindi
Default : Yes

Audio #2
ID : 3
Format : AC-3
Duration : 1h 39mn
Bit rate : 64.0 Kbps
Channel(s) : 2 channels
Channel positions : Front: L R
Sampling rate : 44.1 KHz
Stream size : 45.7 MiB (11%)
Language : English
















































Share this topic on FacebookShare this topic on GoogleShare this topic on MySpaceShare this topic on TwitterShare this topic on Yahoo



always happy to help but now busy
                                InnoCent DeViL


Tags:
 

Related Topics





Back to top